#TITLE:The Final Day;
#SUBTITLE:;
#ARTIST:ParagonX9;
#TITLETRANSLIT:;
#SUBTITLETRANSLIT:;
#ARTISTTRANSLIT:;
#CREDIT:;
#BANNER:finalday-bn.png;
#BACKGROUND:finalday-bg.png;
#LYRICSPATH:;
#CDTITLE:cdtitle.PNG;
#MUSIC:ParagonX9 - The Final Day.mp3;
#OFFSET:-0.039;
#SAMPLESTART:11.000;
#SAMPLELENGTH:12.000;
#SELECTABLE:YES;
#BPMS:0.000=82.530,16.000=165.060;
#STOPS:;
#BGCHANGES:;
// cache tags:
#FIRSTBEAT:0.000;
#LASTBEAT:241.000;
#SONGFILENAME:Songs/Music V.I.P ^_^/The Final Day- Zaghurim/The Final Day.sm;
#HASMUSIC:1;
#HASBANNER:1;
#MUSICLENGTH:93.570;
// end cache tags

//---------------dance-single - ----------------
#NOTES:
     dance-single:
     :
     Hard:
     12:
     1.000,1.000,1.000,0.021,0.935,644.000,199.000,2.000,0.000,0.000:
1001
0000
0000
0010
0000
0000
0100
0000
0010
0000
0000
0100
0000
0000
1000
0000
,
0100
0000
0000
1000
0000
0000
0001
0000
1000
0000
0010
0000
0001
0000
0100
0000
,
0001
0000
0000
0010
0000
0000
0100
0000
0010
0000
0000
0100
0000
0000
1000
0000
,
0100
0000
0000
0000
0000
0000
1000
0000
0000
0000
0000
0000
0001
0000
0000
0000
0010
0000
0000
0000
1000
0000
0000
0000
0100
0000
0000
0000
0001
0010
0100
0010
,
1001
0000
0010
0100
0011
0000
1000
0100
0010
0000
0001
0000
0010
0100
1000
0100
,
0011
0000
1000
0100
0010
0001
0100
0010
0100
0000
1000
0000
0010
0000
0010
0100
,
1001
0000
0100
0010
1100
0000
0001
0010
0100
0000
1000
0000
0100
0010
0001
0010
,
1100
0000
0001
0010
0100
1000
0001
0100
0010
0000
0001
0000
0100
0000
0100
0010
,
0101
0000
1000
0100
1010
0000
0100
0010
1000
0000
0010
0000
1000
0010
0100
0010
,
0101
0000
1000
0100
1000
0010
1000
0100
0001
0000
0100
0000
1000
0000
1000
0001
,
0110
0000
0001
1000
0101
0000
0010
1000
0001
0000
0100
0000
0001
1000
0010
1000
,
0101
0000
0001
0010
0001
0100
0001
0010
1000
0000
0010
0000
0001
0000
0001
0010
,
0101
0000
1000
0100
0011
0000
0010
1000
0100
0000
0010
0000
0100
1000
0010
1000
,
0101
0000
0010
1000
0001
0100
0010
0001
1000
0000
0010
0000
0001
0000
0001
1000
,
0110
0000
1000
0001
1010
0000
0100
0001
1000
0000
0010
0000
0010
0100
0010
0100
,
1010
0000
0100
0001
1000
0010
1000
0100
0001
0000
0100
0000
1000
0000
0100
0010
,
0101
0000
0100
0001
1100
0000
0010
0001
0100
0000
1000
0000
0100
0001
0010
0001
,
1100
0000
0010
0001
0100
0010
0100
0010
0001
0000
0010
0000
0100
0000
0100
0001
,
1010
0000
0001
0100
0011
0000
1000
0100
0001
0000
0010
0000
0001
0100
1000
0100
,
0011
0000
1000
0100
0010
0001
0100
0001
0100
0000
1000
0000
0001
0000
0001
0100
,
1001
0000
1010
0100
0011
0000
1010
0100
0010
0000
0101
0000
0011
0100
1010
0100
,
0011
0000
1001
0100
1001
0010
1100
0010
0100
0000
1001
0000
0010
0000
1010
0100
,
1001
0000
0101
0010
0101
0000
1001
0010
0100
0000
1001
0000
0100
0010
0101
0010
,
1100
0000
0101
0010
0101
0010
1001
0100
0010
0000
0101
0000
0100
0000
0101
0010
,
0101
0000
1010
0100
0011
0000
1100
0010
1000
0000
0011
0000
1000
0010
0101
0010
,
0101
0000
1010
0100
1001
0100
1010
0100
0001
0000
0110
0000
1000
0000
0110
0001
,
0110
0000
0101
1000
0101
0000
1010
0100
0001
0000
0110
0000
0001
1000
0110
1000
,
0101
0000
0101
0010
1001
0100
0011
0100
1000
0000
0110
0000
0001
0000
0001
0010
,
1001
0000
0101
0010
1100
0000
0101
0010
0100
0000
1010
0000
1100
0010
0101
0010
,
1100
0000
0101
0010
0101
0010
1001
0100
0010
0000
1001
0000
0100
0000
0101
0010
,
1001
0000
1010
0100
1010
0000
1001
0100
0010
0000
1001
0000
0010
0100
1010
0100
,
0011
0000
1010
0100
1010
0100
1001
0010
0100
0000
1010
0000
0010
0000
1010
0100
,
1010
0000
0101
0010
1100
0000
0011
0100
0001
0000
1100
0000
0001
0100
1010
0100
,
1010
0000
0101
0010
1001
0010
0101
0010
1000
0000
0110
0000
0001
0000
0110
1000
,
0110
0000
1010
0001
1010
0000
0101
0010
1000
0000
0110
0000
1000
0001
0110
0001
,
1010
0000
1010
0100
1001
0010
1100
0001
0010
0100
0010
0100
1001
0000
1010
0100
,
1001
1000
1000
1010
1000
1000
1100
1000
,
0011
0001
0001
0101
0001
0001
0011
0001
,
1010
0010
0010
0011
0010
0010
0110
0010
,
0110
0100
0101
0100
1100
0100
0110
0100
,
1010
0010
0010
0011
0010
0010
0110
0010
,
1001
1000
1000
1100
1000
1000
1001
1000
,
0011
0001
0001
1001
0001
0001
0101
0001
,
0101
0000
0100
0000
1100
0000
0100
0000
0110
0000
0100
0000
0101
0010
1000
0010
,
0101
0001
1000
1010
0001
0010
1010
0100
,
0110
0010
0010
1010
0100
0100
0110
0001
,
1010
1000
0100
0101
0001
0001
0101
1000
,
1010
1000
0011
0100
0011
0010
1001
1000
,
0011
0001
1000
1100
0100
1000
0110
0001
,
0101
1000
0010
0110
0100
0001
1100
1000
,
0101
0001
1000
0011
1000
0001
0101
0001
,
0011
0000
1000
0000
0101
0000
0010
0000
1001
0000
0100
0000
0101
0010
0100
0010
,
0101
0000
1000
0000
0011
0000
1000
0001
0010
0100
1000
0000
0011
0100
0001
0010
,
1100
0000
0010
0000
0101
0000
1000
0001
0010
1000
0100
0000
1010
0100
0010
0100
,
1010
0000
0100
0000
1010
0000
0100
0010
1000
0001
0100
0000
1010
0001
0010
1000
,
0101
0000
1000
0000
0011
0000
0100
0010
1000
0100
0001
0000
1100
0001
1000
0001
,
1100
0000
0010
0000
0101
0000
0010
0100
0001
1000
0010
0000
0101
1000
0100
0001
,
1010
0000
0001
0000
1100
0000
0010
0100
0001
0010
1000
0000
0011
1000
0001
1000
,
0011
0000
0100
0000
1001
0000
0100
1000
0001
0010
0100
0000
1001
0010
1000
0001
,
0110
0000
0001
0000
1010
0000
0100
1000
0001
0100
0010
0000
1001
0100
0010
0100
,
2002
3003
0000
0000
;

//---------------dance-single - ----------------
#NOTES:
     dance-single:
     :
     Challenge:
     13:
     1.000,1.000,1.000,0.021,1.000,679.000,199.000,2.000,0.000,0.000:
1001
0000
0000
0010
0000
0000
0100
0000
0010
0000
0000
0100
0000
0000
1000
0000
,
0100
0000
0000
1000
0000
0000
0001
0000
1000
0000
0010
0000
0001
0000
0100
0000
,
0001
0000
0000
0010
0000
0000
0100
0000
0010
0000
0000
0100
0000
0000
1000
0000
,
0100
0000
0000
0000
0000
0000
1000
0000
0000
0000
0000
0000
0001
0000
0000
0000
0010
0000
0000
0000
1000
0000
0000
0000
0100
0000
0000
0000
0001
0010
0001
0010
,
0101
0000
0010
0100
0011
0000
1000
0100
0010
0000
0001
0000
0010
0100
1000
0100
,
0011
0000
0000
0000
1000
0000
0100
0000
0010
0001
1000
0001
1000
0000
0010
0000
0100
0000
0000
0000
1000
0000
0000
0000
0010
0000
0000
0000
0010
0000
0100
0000
,
1001
0000
0100
0010
1100
0000
0001
0010
0100
0000
1000
0000
0100
0010
0001
0010
,
1100
0000
0000
0000
0001
0000
0010
0000
0100
1000
0001
1000
0001
0000
0100
0000
0010
0000
0000
0000
0001
0000
0000
0000
0100
0000
0000
0000
0100
0000
0010
0000
,
0101
0000
1000
0100
1010
0000
0100
0010
1000
0000
0010
0000
1000
0010
0100
0010
,
0101
0000
0000
0000
1000
0000
0100
0000
0010
0100
0010
0100
1000
0000
0100
0000
0001
0000
0000
0000
0100
0000
0000
0000
1000
0000
0000
0000
1000
0000
0001
0000
,
0110
0000
0001
1000
0101
0000
0010
1000
0001
0000
0100
0000
0001
1000
0010
1000
,
0101
0000
0000
0000
0001
0000
0010
0000
1000
0010
1000
0010
0001
0000
0010
0000
1000
0000
0000
0000
0010
0000
0000
0000
0001
0000
0000
0000
0001
0000
0010
0000
,
0101
0000
1000
0100
0011
0000
0010
1000
0100
0000
0010
0000
0100
1000
0010
1000
,
0101
0000
0000
0000
0010
0000
1000
0000
0001
0100
0001
0100
0010
0000
0001
0000
1000
0000
0000
0000
0010
0000
0000
0000
0001
0000
0000
0000
0001
0000
1000
0000
,
0110
0000
1000
0001
1010
0000
0100
0001
1000
0000
0010
0000
0010
0100
0010
0100
,
1010
0000
0000
0000
0100
0000
0010
0000
0001
0010
0001
0010
1000
0000
0100
0000
0001
0000
0000
0000
0100
0000
0000
0000
1000
0000
0000
0000
0100
0000
0010
0000
,
0101
0000
0100
0001
1100
0000
0010
0001
0100
0000
1000
0000
0100
0001
0010
0001
,
1100
0000
0000
0000
0010
0000
0001
0000
0100
1000
0100
0001
0010
0000
0100
0000
0001
0000
0000
0000
0010
0000
0000
0000
0100
0000
0000
0000
0100
0000
0001
0000
,
1010
0000
0001
0100
0011
0000
1000
0100
0001
0000
0010
0000
0001
0100
1000
0100
,
0011
0000
0000
0000
1000
0000
0100
0000
0010
0100
0001
0010
0100
0000
0001
0000
0100
0000
0000
0000
1000
0000
0000
0000
0001
0000
0000
0000
0001
0000
0100
0000
,
1001
0000
1010
0100
0011
0000
1010
0100
0010
0000
0101
0000
0011
0100
1010
0100
,
0011
0000
0000
0000
1010
0000
0100
0000
1010
0001
0010
0100
1001
0000
0010
0000
0100
0000
0000
0000
1001
0000
0000
0000
0010
0000
0000
0000
1010
0000
0100
0000
,
1001
0000
0101
0010
0101
0000
1001
0010
0100
0000
1001
0000
0100
0010
0101
0010
,
1100
0000
0000
0000
0101
0000
0010
0000
0101
1000
0100
0010
1001
0000
0100
0000
0010
0000
0000
0000
0101
0000
0000
0000
0100
0000
0000
0000
0101
0000
0010
0000
,
0101
0000
1010
0100
0011
0000
1100
0010
1000
0000
0011
0000
1000
0010
0101
0010
,
0101
0000
0000
0000
1010
0000
0100
0000
1001
0100
0010
0001
1010
0000
0100
0000
0001
0000
0000
0000
0110
0000
0000
0000
1000
0000
0000
0000
0110
0000
0001
0000
,
0110
0000
0101
1000
0101
0000
1010
0100
0001
0000
0110
0000
0001
1000
0110
1000
,
0101
0000
0000
0000
0101
0000
0010
0000
1001
0010
0100
1000
0011
0000
0100
0000
1000
0000
0000
0000
0110
0000
0000
0000
0001
0000
0000
0000
0001
0000
0010
0000
,
1001
0000
0101
0010
1100
0000
0101
0010
0100
0000
1010
0000
1100
0010
0101
0010
,
1100
0000
0000
0000
0101
0000
0010
0000
0101
1000
0100
0010
1001
0000
0100
0000
0010
0000
0000
0000
1001
0000
0000
0000
0100
0000
0000
0000
0101
0000
0010
0000
,
1001
0000
1010
0100
1010
0000
1001
0100
0010
0000
1001
0000
0010
0100
1010
0100
,
0011
0000
0000
0000
1010
0000
0100
0000
1010
0001
0010
0100
1001
0000
0010
0000
0100
0000
0000
0000
1010
0000
0000
0000
0010
0000
0000
0000
1010
0000
0100
0000
,
1010
0000
0101
0010
1100
0000
0011
0100
0001
0000
1100
0000
0001
0100
1010
0100
,
1010
0000
0000
0000
0101
0000
0010
0000
1001
0010
0100
1000
0101
0000
0010
0000
1000
0000
0000
0000
0110
0000
0000
0000
0001
0000
0000
0000
0110
0000
1000
0000
,
0110
0000
1010
0001
1010
0000
0101
0010
1000
0000
0110
0000
1000
0001
0110
0001
,
1010
0000
0000
0000
1010
0000
0100
0000
1001
0100
0010
0001
1100
0000
0001
0000
0010
1000
0010
0100
0001
0100
0010
0000
1001
0000
0000
0000
1010
0000
0100
0000
,
1001
1000
1000
1010
1000
1000
1100
1000
,
0011
0001
0001
0101
0001
0001
0011
0001
,
1010
0010
0010
0011
0010
0010
0110
0010
,
0110
0100
0101
0100
1100
0100
0110
0100
,
1010
0010
0010
0011
0010
0010
0110
0010
,
1001
1000
1000
1100
1000
1000
1001
1000
,
0011
0001
0001
1001
0001
0001
0101
0001
,
0101
0000
0100
0000
1100
0000
0100
0000
0110
0000
0100
0000
0101
0010
1000
0010
,
0101
0001
1000
1010
0001
0010
1010
0100
,
0110
0010
0010
1010
0100
0100
0110
0001
,
1010
1000
0100
0101
0001
0001
0101
1000
,
1010
1000
0011
0100
0011
0010
1001
1000
,
0011
0001
1000
1100
0100
1000
0110
0001
,
0101
1000
0010
0110
0100
0001
1100
1000
,
0101
0001
1000
0011
1000
0001
0101
0001
,
0011
0000
1000
0000
0101
0000
0010
0000
1001
0000
0100
0000
0101
0010
0100
0010
,
0101
0000
1000
0000
0011
0000
1000
0001
0010
0100
1000
0000
0011
0100
0001
0010
,
1100
0000
0010
0000
0101
0000
1000
0001
0010
1000
0100
0000
1010
0100
0010
0100
,
1010
0000
0100
0000
1010
0000
0100
0010
1000
0001
0100
0000
1010
0001
0010
1000
,
0101
0000
1000
0000
0011
0000
0100
0010
1000
0100
0001
0000
1100
0001
1000
0001
,
1100
0000
0010
0000
0101
0000
0010
0100
0001
1000
0010
0000
0101
1000
0100
0001
,
1010
0000
0001
0000
1100
0000
0010
0100
0001
0010
1000
0000
0011
1000
0001
1000
,
0011
0000
0100
0000
1001
0000
0100
1000
0001
0010
0100
0000
1001
0010
1000
0001
,
0110
0000
0001
0000
1010
0000
0100
1000
0001
0100
0010
0000
1001
0100
0010
0100
,
2002
3003
0000
0000
;
